Category Archives: videos,divx

The Ones Below 2016 English butt face YIFY Full Torrent

Download here

Good torrent

The Ones Below 2016

unnerving for the first time, hoping to find a married couple, who lived among them, which is also under his wide, having a baby.

Director: David Farr

Author: Farr (screenplay)

Stars: Clmence Posy, Morrissey, David Marcus Moore

Genre: Gloria

Country: United Kingdom

Language: English

release:

Source: MT – Thank you

Spent ten years in the waves of the children of Africa, and play a character (Martin Sheen) to the most important part of the reason for this is to create.

Blgen (2015)

R | 1h 45min | Action, Drama, Glory | August 28, 2015 (Norway)

Through their hopes, nor is he ready enough to make a pass, Geiranger fjord in Norway, that he fell, and he does the violence of the 85-meter high tsunami. geologist caught in the middle.

Director: Roar Uthaug

Author: Kre Raak, EEG Harald Rosenlw,

Stars: Kristoffer Jones, Ane Dahl Torp, Jonas Hoff Oftebro

NoCTRL Uploads! Fast Download Speed! File Cleanup! NO SPAM! And Popup screenshot link Preview! Do not forget that the seeds!

– Trusted VPN works of the Most High! Leather money or identity online Affiliate System. Start here today with simple clicks

User votes 13 0

  1. The Ones Below 2016 free download torrent
  2. The Ones Below 2016 French BluRay Download Movie Torrent
  3. The Ones Below 2016 DVD Download Movie Torrent

Independence Day Resurgence 2016 French torrent

Download here

Good torrent

Independence Day Resurgence 2016

Independence Day Resurgence (2016) HDTS – x264 – Dual Audio AAC

Format: Matroska

Format version: Version 4/2 Version

size: 845 MB

Duration: 1 hour 50mn

total bit rate: 1068 Kbps

video

ID: 1

Format: AVC

Format / Info: Advanced Video Codec

Profile format: / * * /

The definitions of size, CABAC: Yes

The definitions of size, rephrase: 5 frames

Codec ID: V_MPEG4 / ISO / AVC

Duration: 1 hour 50mn

Bit rate: 810 Kbps

Width: 704 pixels

Height: 376 pixels

Display Aspect ratio :: 1

frame rate mode: Constant

Frame rate fps

Color Space: YUV

Chroma sub-sampling 4: 2: 0

Bit Depth: 8 bits

Scan type: Progressive

Bits / (Pixel * Frame):

Stream size: 641 MiB (76%)

Audio # 1

Condition: 2

Format: AAC

Format / Info: Advanced Audio Codec

Format profile: LC

Codec ID: A_AAC

Duration: 1 hour 49mn

Bit rate: 128 Kbps

Channel (s): 2 channels

The Channel positions: Front: LR

Sample rate: KHz

Frame rate fps (SPF 1024)

Compression mode: Lossy

Delays related to video: 10ms

Stream size: 100 MiB (12%)

Title: Hindi

Language: Hindi

Audio # 2

ID: 3

Format: AAC

Format / Info: Advanced Audio Codec

Format profile: LC

Codec ID: A_AAC

Duration: 1 hour 50mn

Bit rate: 128 Kbps

Channel (s): 2 channels

The Channel positions: Front: LR

Sample rate: KHz

Frame rate fps (SPF 1024)

Compression mode: Lossy

Delays related to video: 10ms

Stream size: 101 MiB (12%)

Title: English

Language: English

Source: DH (Thanks)

Click on the image to view full size

User votes 17 2

  1. Independence Day Resurgence 2016 Download Full Movie Torrent
  2. Independence Day Resurgence 2016 WEB-DL Movie Torrent Download
  3. Independence Day Resurgence 2016 XViD-ETRG Pirate Download Free Movie Torrent